<svg xmlns="http://www.w3.org/2000/svg">
<defs>
<font
       id="EmbeddedFont_1"
       horiz-adv-x="2048"
       horiz-origin-x="0"
       horiz-origin-y="0"
       vert-origin-x="45"
       vert-origin-y="90"
       vert-adv-y="90"><font-face
         font-family="Silicon embedded"
         units-per-em="2048"
         font-weight="normal"
         font-style="normal"
         ascent="1614"
         descent="635"
         id="font-face12" /><missing-glyph
         horiz-adv-x="2048"
         d="M 0,0 L 2047,0 2047,2047 0,2047 0,0 Z"
         id="missing-glyph14" /><glyph
         unicode="©"
         horiz-adv-x="742"
         d="M 82,1085 C 82,1267 95,1375 120,1409 145,1443 230,1460 375,1460 L 520,1460 C 669,1460 755,1448 779,1423 803,1397 814,1316 811,1180 811,1165 811,1149 811,1134 811,1118 811,1101 811,1084 811,1064 811,1046 811,1028 811,1011 811,994 811,979 812,847 805,770 788,750 772,729 709,719 598,719 587,719 575,719 562,719 549,719 535,719 520,719 L 375,719 C 361,719 349,719 337,719 325,719 314,719 303,719 193,719 128,734 110,763 91,792 82,899 82,1085 Z M 666,1083 C 666,1097 666,1110 666,1121 666,1133 666,1144 668,1155 668,1165 668,1174 668,1183 668,1192 668,1200 668,1209 668,1258 659,1288 643,1299 627,1310 586,1315 520,1315 L 375,1315 C 302,1315 260,1304 247,1282 234,1260 227,1194 227,1084 227,973 232,909 243,891 253,873 286,864 342,864 346,864 351,864 357,864 364,864 369,864 375,864 L 520,864 C 535,864 549,864 561,864 573,864 584,864 594,864 632,864 654,873 659,889 665,906 667,948 666,1017 666,1027 666,1037 666,1048 666,1059 666,1071 666,1083 Z M 602,998 L 602,910 C 602,910 596,910 585,910 573,910 560,910 547,910 535,910 523,910 512,910 501,910 495,910 494,910 485,910 477,910 469,910 461,910 453,910 444,910 360,910 310,917 296,931 282,945 274,996 274,1082 274,1083 274,1084 274,1085 274,1085 274,1086 274,1088 274,1175 284,1226 302,1240 321,1255 384,1262 494,1262 495,1262 501,1262 512,1262 523,1262 535,1262 549,1262 563,1262 575,1262 587,1262 598,1262 604,1262 604,1262 L 604,1176 494,1176 C 427,1176 388,1172 377,1164 366,1157 360,1131 360,1088 360,1086 360,1085 360,1085 360,1084 360,1084 360,1084 360,1040 365,1015 373,1008 381,1001 409,998 457,998 462,998 468,998 474,998 480,998 487,998 494,998 L 602,998 Z"
         id="glyph16" /><glyph
         unicode="y"
         horiz-adv-x="1483"
         d="M 82,1172 L 373,1172 C 373,1172 373,1155 373,1120 373,1085 373,1046 373,1003 373,980 373,957 373,934 373,912 373,892 373,876 373,815 399,776 451,758 502,740 560,731 623,731 629,731 637,731 644,731 652,731 659,731 666,731 L 958,731 C 971,731 983,731 995,731 1008,731 1020,733 1032,736 1087,736 1137,745 1184,764 1230,784 1253,821 1253,876 1253,892 1253,912 1253,934 1253,957 1253,980 1253,1003 1253,1046 1253,1085 1253,1120 1253,1155 1253,1172 1253,1172 L 1546,1172 C 1546,1172 1546,1145 1546,1091 1546,1037 1546,966 1546,877 1546,770 1516,691 1455,638 1394,586 1327,549 1253,529 1208,516 1165,508 1123,505 1082,502 1047,500 1018,500 1008,500 1000,500 993,500 986,500 980,501 975,502 969,502 965,502 963,502 960,502 958,502 958,502 L 958,0 666,0 666,504 C 666,504 665,504 665,504 664,504 662,504 659,504 658,504 656,504 653,504 651,504 647,504 643,504 620,504 583,504 532,504 482,504 429,512 375,527 301,546 234,582 173,634 112,686 82,767 82,875 82,964 82,1036 82,1091 82,1145 82,1172 82,1172 Z"
         id="glyph18" /><glyph
         unicode="t"
         horiz-adv-x="1457"
         d="M 82,584 L 82,1172 82,1465 373,1465 373,1172 1542,1172 1542,877 373,877 373,584 C 373,482 391,407 427,361 463,314 591,291 809,291 920,291 1005,306 1065,337 1125,368 1169,402 1196,438 1223,474 1239,507 1244,538 1249,569 1251,584 1251,584 L 1542,584 C 1542,584 1542,584 1542,583 1542,582 1542,581 1542,578 1542,563 1537,527 1527,471 1517,415 1492,356 1452,293 1407,219 1335,152 1235,91 1135,30 993,0 809,0 446,0 234,52 173,156 112,260 82,402 82,584 Z"
         id="glyph20" /><glyph
         unicode="s"
         horiz-adv-x="1483"
         d="M 811,436 C 780,436 749,436 720,436 691,436 663,436 637,436 360,436 198,451 152,481 105,511 82,619 82,805 82,990 105,1097 152,1127 198,1157 358,1172 631,1172 658,1172 687,1172 717,1172 747,1172 778,1172 811,1172 L 1546,1172 1546,877 811,877 C 593,877 465,874 428,868 391,862 373,841 373,805 373,765 385,743 409,737 432,732 515,729 657,729 679,729 703,729 729,729 755,729 782,729 811,729 1178,729 1393,714 1454,683 1516,653 1546,546 1546,364 1546,345 1546,327 1546,310 1546,293 1547,277 1548,262 1548,246 1548,231 1548,218 1548,204 1548,191 1548,179 1548,85 1522,32 1469,18 1417,5 1279,-2 1055,-2 1019,-2 981,-2 941,-2 901,-2 857,-2 811,-2 L 82,-2 82,289 811,289 C 845,289 877,289 905,289 934,289 960,289 983,289 1109,289 1185,290 1213,293 1241,296 1255,308 1255,330 1255,332 1255,335 1255,337 1255,339 1255,341 1255,344 1254,348 1253,351 1253,354 1253,357 1253,360 1253,364 1253,367 1253,369 1253,372 1253,375 1254,377 1255,380 1255,383 1255,385 1255,388 1255,391 1255,393 1255,394 1254,415 1231,428 1186,431 1141,434 1016,436 811,436 Z"
         id="glyph22" /><glyph
         unicode="r"
         horiz-adv-x="1483"
         d="M 373,877 L 373,0 82,0 82,1172 C 82,1172 120,1172 196,1172 271,1172 355,1172 446,1172 534,1172 615,1172 689,1172 764,1172 804,1172 811,1172 812,1172 814,1172 816,1172 818,1172 820,1172 821,1172 1183,1172 1395,1154 1457,1117 1519,1080 1549,951 1546,731 1546,731 1539,731 1525,731 1510,731 1492,731 1470,731 1460,731 1448,731 1436,731 1423,731 1412,731 1401,731 1364,731 1330,731 1299,731 1269,731 1253,731 1253,731 1253,742 1253,753 1253,762 1253,772 1253,780 1253,787 1253,831 1231,856 1187,865 1142,873 1017,877 811,877 799,877 772,877 730,877 688,877 643,877 594,877 539,877 489,877 442,877 396,877 373,877 373,877 Z"
         id="glyph24" /><glyph
         unicode="p"
         horiz-adv-x="1483"
         d="M 82,877 C 82,1024 112,1111 173,1135 234,1160 447,1172 813,1172 1183,1172 1398,1152 1458,1111 1518,1070 1548,926 1546,680 1546,665 1546,650 1546,633 1546,617 1546,600 1546,584 1546,562 1546,541 1546,520 1546,500 1546,480 1546,461 1549,226 1527,90 1481,53 1434,16 1267,-2 979,-2 954,-2 928,-2 900,-2 872,-2 843,-2 813,-2 813,-2 798,-2 767,-2 736,-2 703,-2 668,-2 631,-2 597,-2 566,-2 536,-2 520,-2 520,-2 L 520,289 813,289 C 838,289 861,289 882,289 903,289 923,289 942,289 1102,289 1194,298 1220,315 1245,333 1256,398 1253,509 1253,520 1253,532 1253,545 1253,558 1253,571 1253,584 1253,597 1253,609 1253,621 1253,633 1254,645 1255,656 1255,665 1255,675 1255,685 1255,696 1255,705 1255,713 1255,795 1233,843 1187,856 1141,870 1016,877 813,877 599,877 472,865 432,840 393,815 373,730 373,584 373,526 373,448 373,350 373,251 373,149 373,42 373,-114 373,-257 373,-388 373,-519 373,-584 373,-584 L 82,-584 82,877 Z"
         id="glyph26" /><glyph
         unicode="o"
         horiz-adv-x="1483"
         d="M 82,584 C 82,887 101,1064 138,1113 176,1162 309,1186 537,1186 556,1186 576,1186 598,1186 620,1186 642,1186 666,1186 L 956,1186 C 984,1186 1010,1186 1034,1186 1059,1186 1082,1186 1104,1186 1303,1186 1427,1175 1475,1153 1522,1132 1546,1052 1546,915 1546,894 1546,872 1545,848 1545,824 1544,799 1544,772 1544,744 1544,715 1543,684 1542,653 1542,619 1542,584 1542,548 1542,515 1543,485 1544,454 1544,425 1544,398 1544,371 1545,345 1545,322 1546,298 1546,276 1546,255 1546,122 1524,46 1479,27 1434,8 1319,-2 1135,-2 1109,-2 1081,-2 1051,-2 1021,-2 989,-2 956,-2 L 662,-2 C 634,-2 608,-2 583,-2 557,-2 534,-2 512,-2 298,-2 172,21 136,67 100,114 82,286 82,584 Z M 1253,584 C 1253,600 1253,616 1253,631 1253,646 1254,660 1255,674 1255,686 1255,699 1255,711 1255,723 1255,734 1255,744 1255,817 1240,860 1209,873 1179,885 1098,891 969,891 967,891 966,891 964,891 962,891 960,891 958,891 L 668,891 C 520,891 434,878 410,852 385,826 373,737 373,585 373,584 373,582 373,582 373,581 373,580 373,579 373,432 382,347 399,324 417,301 481,289 590,289 601,289 613,289 626,289 639,289 652,289 666,289 L 956,289 C 973,289 988,289 1002,289 1017,289 1030,289 1042,289 1152,289 1214,297 1231,314 1247,330 1255,392 1253,500 1253,512 1253,525 1253,540 1253,554 1253,569 1253,584 Z"
         id="glyph28" /><glyph
         unicode="n"
         horiz-adv-x="1483"
         d="M 811,1170 C 849,1170 889,1170 931,1170 972,1170 1015,1166 1059,1158 1182,1137 1294,1078 1397,981 1499,884 1549,703 1546,439 L 1542,0 1251,0 1253,440 C 1253,581 1226,681 1172,741 1119,802 1059,841 993,859 961,868 928,873 896,873 864,873 836,873 811,873 799,873 772,873 730,873 688,873 643,873 594,873 539,873 489,873 442,873 396,873 373,873 373,873 L 373,0 82,0 82,1170 C 82,1170 120,1170 196,1170 271,1170 355,1170 446,1170 534,1170 615,1170 689,1170 764,1170 804,1170 811,1170 Z"
         id="glyph30" /><glyph
         unicode="m"
         horiz-adv-x="1483"
         d="M 520,1172 C 594,1172 651,1159 690,1134 730,1109 758,1082 776,1053 795,1023 806,995 809,970 812,945 813,932 813,932 813,932 815,945 818,970 822,995 832,1023 850,1053 869,1082 898,1108 938,1133 978,1158 1034,1170 1108,1170 1217,1170 1302,1170 1362,1170 1422,1170 1466,1170 1493,1170 1522,1170 1538,1170 1543,1169 1548,1168 1550,1168 1550,1168 L 1546,0 1253,0 1253,877 C 1253,877 1240,877 1213,877 1187,877 1152,877 1108,877 1052,877 1014,855 995,810 976,766 965,717 961,664 959,650 958,637 958,623 958,609 958,596 958,584 L 958,0 666,0 666,584 C 666,596 666,609 666,623 666,637 665,650 664,664 662,717 652,766 634,810 615,855 578,877 520,877 512,877 503,877 493,877 482,877 472,877 463,877 440,877 419,877 400,877 382,877 373,877 373,877 L 373,0 82,0 82,1172 C 82,1172 105,1172 151,1172 196,1172 246,1172 301,1172 353,1172 401,1172 444,1172 488,1172 513,1172 520,1172 Z"
         id="glyph32" /><glyph
         unicode="i"
         horiz-adv-x="319"
         d="M 86,1172 L 379,1172 379,0 82,0 86,1172 Z M 86,1465 L 379,1465 379,1320 86,1320 86,1465 Z"
         id="glyph34" /><glyph
         unicode="h"
         horiz-adv-x="1483"
         d="M 82,1465 L 373,1465 373,1172 C 373,1172 396,1172 441,1172 487,1172 538,1172 594,1172 646,1172 694,1172 739,1172 784,1172 809,1172 813,1172 1184,1172 1400,1152 1460,1113 1520,1073 1549,934 1546,695 1546,678 1546,660 1546,641 1546,623 1546,604 1546,585 1546,286 1546,114 1546,68 1546,21 1546,-2 1546,-2 1546,-2 1546,-2 1546,-2 1546,-2 1546,-2 1546,-2 L 1253,-2 1253,583 C 1253,596 1253,607 1253,618 1253,629 1253,640 1253,651 1256,763 1239,829 1203,848 1167,867 1037,877 813,877 667,877 557,877 483,877 410,877 373,877 373,877 L 373,0 82,0 82,1465 Z"
         id="glyph36" /><glyph
         unicode="g"
         horiz-adv-x="1483"
         d="M 1253,584 C 1253,592 1253,600 1253,608 1253,615 1253,622 1253,629 1255,751 1237,822 1200,844 1163,866 1034,877 813,877 593,877 465,865 428,841 391,817 373,733 373,589 373,588 373,587 373,586 373,585 373,585 373,585 373,584 373,583 373,582 373,581 373,581 373,581 373,434 386,348 414,325 441,301 536,289 698,289 716,289 735,289 754,289 773,289 793,289 813,289 L 1108,289 1108,0 C 1108,0 1093,0 1062,0 1031,0 997,0 961,0 925,0 893,0 863,0 834,0 817,0 813,0 788,0 765,0 742,0 720,0 698,0 676,0 380,0 207,24 157,71 107,118 82,289 82,584 82,585 82,586 82,587 82,588 82,588 82,588 82,876 112,1046 173,1096 234,1147 447,1172 813,1172 1156,1172 1364,1165 1438,1149 1511,1134 1548,1081 1548,988 1548,980 1548,971 1548,963 1548,955 1548,946 1548,937 1547,928 1546,919 1546,909 1546,899 1546,888 1546,877 L 1546,-144 C 1546,-160 1546,-177 1546,-194 1546,-211 1546,-227 1546,-242 1549,-415 1529,-516 1485,-543 1441,-570 1282,-584 1008,-584 979,-584 948,-584 915,-584 883,-584 849,-584 813,-584 776,-584 737,-584 695,-584 654,-584 612,-584 569,-584 448,-584 336,-584 235,-584 133,-584 82,-584 82,-584 L 82,-291 C 82,-291 134,-291 239,-291 343,-291 458,-291 584,-291 623,-291 663,-291 701,-291 740,-291 778,-291 813,-291 842,-291 868,-291 893,-291 918,-291 940,-291 961,-291 1109,-291 1196,-287 1220,-278 1243,-269 1255,-234 1253,-174 1253,-169 1253,-164 1253,-159 1253,-154 1253,-149 1253,-143 1253,-143 1253,-94 1253,5 1253,104 1253,213 1253,332 1253,376 1253,419 1253,462 1253,505 1253,546 1253,584 Z"
         id="glyph38" /><glyph
         unicode="e"
         horiz-adv-x="1483"
         d="M 813,-2 C 769,-2 728,-2 688,-2 649,-2 612,-2 578,-2 330,-2 186,9 144,32 103,54 82,141 82,293 L 82,877 C 82,1023 112,1109 173,1134 234,1159 447,1172 813,1172 1180,1172 1394,1159 1455,1133 1516,1107 1546,1022 1546,877 L 1546,439 C 1546,439 1516,439 1455,439 1394,439 1180,439 813,439 809,439 792,439 763,439 734,439 702,439 668,439 631,439 597,439 566,439 536,439 520,439 520,439 L 520,732 1253,732 C 1253,732 1253,735 1253,741 1253,747 1253,769 1253,805 1253,841 1235,862 1198,868 1161,874 1033,877 813,877 593,877 465,865 428,840 391,815 373,730 373,584 373,432 386,345 413,322 439,299 530,287 686,287 704,290 724,291 745,291 767,291 790,291 813,291 L 1546,291 1546,-2 C 1546,-2 1497,-2 1399,-2 1300,-2 1192,-2 1073,-2 1028,-2 983,-2 938,-2 893,-2 851,-2 813,-2 Z"
         id="glyph40" /><glyph
         unicode="d"
         horiz-adv-x="1483"
         d="M 1546,291 C 1546,139 1525,53 1482,31 1439,9 1289,-2 1032,-2 1001,-2 967,-2 930,-2 893,-2 854,-2 813,-2 784,-2 756,-2 729,-2 702,-2 676,-2 651,-2 366,-2 200,22 153,69 105,116 82,288 82,584 82,878 112,1049 173,1098 234,1147 447,1172 813,1172 817,1172 834,1172 863,1172 893,1172 925,1172 961,1172 997,1172 1031,1172 1062,1172 1093,1172 1108,1172 1108,1172 L 1108,877 813,877 C 593,877 465,865 428,841 391,817 373,733 373,589 373,588 373,587 373,586 373,585 373,585 373,585 373,584 373,583 373,582 373,581 373,581 373,581 373,434 386,349 414,325 441,301 536,289 698,289 716,289 735,289 754,289 773,289 793,289 813,289 835,289 856,289 877,289 897,289 916,289 934,289 1098,289 1193,297 1219,315 1245,332 1256,395 1253,506 1253,518 1253,531 1253,544 1253,557 1253,570 1253,584 1253,633 1253,690 1253,754 1253,818 1253,884 1253,951 1253,1079 1253,1197 1253,1304 1253,1411 1253,1465 1253,1465 L 1546,1465 1546,291 Z"
         id="glyph42" /><glyph
         unicode="c"
         horiz-adv-x="1483"
         d="M 1542,291 L 1542,-2 C 1542,-2 1504,-2 1427,-2 1351,-2 1267,-2 1176,-2 1085,-2 1003,-2 928,-2 853,-2 813,-2 809,-2 780,-2 752,-2 725,-2 698,-2 672,-2 647,-2 365,-2 200,21 153,67 105,112 82,281 82,574 82,575 82,577 82,579 82,581 82,583 82,584 82,878 112,1049 173,1098 234,1147 447,1172 813,1172 817,1172 857,1172 932,1172 1007,1172 1090,1172 1180,1172 1271,1172 1355,1172 1432,1172 1508,1172 1546,1172 1546,1172 L 1546,877 813,877 C 593,877 465,865 428,841 391,817 373,733 373,589 373,588 373,587 373,586 373,585 373,585 373,585 373,582 373,580 373,578 373,576 373,574 373,573 373,430 386,347 413,325 439,302 532,291 690,291 708,291 727,291 746,291 766,291 787,291 809,291 L 1542,291 Z"
         id="glyph44" /><glyph
         unicode="a"
         horiz-adv-x="1483"
         d="M 813,1174 C 857,1174 898,1174 936,1174 974,1174 1010,1174 1044,1174 1296,1174 1442,1162 1484,1139 1525,1116 1546,1029 1546,878 L 1546,292 C 1546,148 1516,63 1455,38 1394,13 1180,0 813,0 447,0 234,13 173,38 112,63 82,148 82,293 L 82,440 C 82,586 108,671 161,695 213,719 397,731 713,731 729,731 745,731 762,731 778,731 795,731 813,731 817,731 834,731 863,731 893,731 925,731 961,731 997,731 1031,731 1062,731 1093,731 1108,731 1108,731 L 1108,438 375,438 C 375,438 375,435 375,429 375,423 375,402 375,367 375,330 393,308 430,302 467,296 595,293 813,293 1034,293 1163,305 1200,330 1237,354 1255,439 1255,585 1255,737 1242,825 1215,848 1189,871 1097,883 940,883 922,882 902,881 881,881 859,881 836,881 813,881 L 82,881 82,1174 C 82,1174 131,1174 228,1174 326,1174 433,1174 551,1174 597,1174 643,1174 687,1174 731,1174 773,1174 813,1174 Z"
         id="glyph46" /><glyph
         unicode="T"
         horiz-adv-x="1483"
         d="M 666,1172 L 82,1172 82,1465 1546,1465 1546,1172 958,1172 958,0 666,0 666,1172 Z"
         id="glyph48" /><glyph
         unicode="L"
         horiz-adv-x="1483"
         d="M 82,1465 L 373,1465 373,291 1546,291 1546,0 82,0 82,1465 Z"
         id="glyph50" /><glyph
         unicode="K"
         horiz-adv-x="1483"
         d="M 373,1465 L 373,863 1090,1465 1546,1465 674,729 1546,0 1090,0 373,598 373,0 82,0 82,1465 373,1465 Z"
         id="glyph52" /><glyph
         unicode="C"
         horiz-adv-x="1457"
         d="M 1542,1170 L 666,1170 C 520,1170 434,1152 410,1116 385,1080 373,954 373,738 373,736 373,735 373,734 373,732 373,731 373,729 373,507 384,378 407,342 429,307 496,289 606,289 616,289 625,289 635,289 644,289 655,289 666,289 L 1542,289 1542,-2 666,-2 C 646,-2 628,-2 610,-2 593,-2 576,-2 559,-2 339,-2 205,28 156,87 107,147 82,361 82,729 82,1096 106,1309 154,1370 201,1431 369,1461 655,1461 657,1461 658,1461 660,1461 663,1461 664,1461 666,1461 L 1542,1461 1542,1170 Z"
         id="glyph54" /><glyph
         unicode="."
         horiz-adv-x="319"
         d="M 82,145 L 375,145 375,0 82,0 82,145 Z"
         id="glyph56" /><glyph
         unicode=" "
         horiz-adv-x="1614"
         id="glyph58" /></font>
</defs>
</svg>
